Author: ^^GoRiLLaZ^^   |   30 January 2020   |   comments: 0
Care Bears Movie II A New Generation (1986) [1080p] [WEBRip] [YTS LT]



IMDB information:

Title: Care Bears Movie II: A New Generation (1986)
Genres: Animation, Adventure, Comedy, Family, Fantasy, Musical
Description: In this second installment to the original Care Bear Movie trilogy of the 1980s, the Care Bear Family goes on their first Caring Mission--to stop the evil doings of a demon villain, named Dark Heart, from taking over a summer camp while making the Bears and Cousins vanish forever. In exchange for the Family's capture, he gives a camper named Christy the chance to succeed as the "Camp Champ" over her so-named rival. While starting the Kingdom of Caring, its founders (True Heart Bear and Noble Heart Horse) will stop at nothing to end the wrath of the Bears' first villain. Christy's friends, Dawn and John, and the rest of the Family join them in doing so. Narrating the tale is the Great Wishing Star (voiced by Chris Wiggins), who also helps True Heart and Noble Heart start the Kingdom, as both of them take care of the little orphan Cubs.
  Author: ^^GoRiLLaZ^^   |   30 January 2020   |   comments: 0
BQ Recordings - The Best Of 2019 (2020)



General:

Total tracks: 50
Size: 914.75 MB
Formats: mp3


Music:

Album: The Best Of 2019
Artist: Janno Kekkonen
Genre: Progressive House, Deep House, Electronic
Date: 2020


  Author: ^^GoRiLLaZ^^   |   30 January 2020   |   comments: 0
2000er Dance Music Vol 3 (2020)



General:

Total tracks: 50
Size: 393.37 MB
Formats: mp3


Music:

Album: 2000er Dance Music Vol.3
Artist: Tribune
Genre: HardCore, Hand Up, Dance
Date: 2020


  Author: ^^GoRiLLaZ^^   |   30 January 2020   |   comments: 0
VA - The Rough Guide to Country Blues (2019) MP3



General:

Total tracks: 25
Size: 221.11 MB
Formats: mp3


Music:

Album: The Rough Guide to Country Blues
Artist: Tommy Johnson
Genre: Country-Blues
Date: 2019


  Author: ^^GoRiLLaZ^^   |   30 January 2020   |   comments: 0
A Mystery To People (2020)



General:

Total tracks: 100
Size: 1.22 GB
Formats: mp3


Music:

Album: A Mystery To People
Artist: Klaada
Genre: Downtempo, Enigmatic, New Age, Electronic
Date: 2020


  Author: ^^GoRiLLaZ^^   |   30 January 2020   |   comments: 0
Shameless US S10 WEBRip x264-ION10



IMDB information:

Title: Shameless (2011)
Genres: Comedy, Drama
Description: Watch the Irish American family the Gallagher's deal with their alcoholic father Frank. Fiona, the eldest daughter, takes the role of parent to her five brothers and sisters. Lip, Ian, Debbie, Carl, and Liam deal with life in the South Side projects of Chicago. Fiona balances her sex life and raising her siblings. Every episode is another crazy situation that one or more of the Gallagher six get into. Watch them grow and learn how to make their way in life with what little they have.
  Author: ^^GoRiLLaZ^^   |   30 January 2020   |   comments: 0
Locked Up Abroad - Model Drug Runner (2020) S13E5 HDTV 720p



IMDB information:

Series information
Title: Banged Up Abroad / Locked Up Abroad
Genres: Action, Crime, Drama
Description: Banged Up Abroad is a British documentary/docudrama television series that was produced for Channel Five and that premiered in March 2006. It is broadcast under the title "Locked Up Abroad" in the United States and other parts of the world on the National Geographic Channel. It features stories of people who have been arrested while travelling abroad, usually for trying to smuggle illegal drugs out of a particular country and have received lengthy prison sentences as a result. Among the stories to have been told is that of British woman Sandra Gregory, who spent several years in the Klong Prem Central Prison after being convicted of trying to smuggle heroin out of Thailand. A second series was broadcast in 2007 with a third series during August and September 2008, and a fourth in October 2008.
Rating: 8.2
Production: RAW ; Distributors: National Geographic Channel

Episode information
Season: 13
Episode: 05
Title: Model Drug Runner
Description: Garrain Jones gets caught smuggling heroin.


IMDb:
https://www.imdb.com/title/tt1020109/


General
Unique ID : 251813203594707789285167713589061607152 (0xBD71757BBFCAA8DAC1E90D401479DEF0)
Complete name : Model Drug Runner.mkv
Format : Matroska
Format version : Version 4
File size : 730 MiB
Duration : 43 min 0 s
Overall bit rate : 2 374 kb/s
Writing application : Lavf57.29.101
Writing library : Lavf57.29.101

Video
ID : 1
Format : AVC
Format/Info : Advanced Video Codec
Format profile : [email protected]
Format settings : CABAC / 4 Ref Frames
Format settings, CABAC : Yes
Format settings, Reference fra : 4 frames
Codec ID : V_MPEG4/ISO/AVC
Duration : 43 min 0 s
Bit rate : 2 199 kb/s
Width : 1 280 pixels
Height : 720 pixels
Display aspect ratio : 16:9
Frame rate mode : Constant
Frame rate : 59.940 FPS
Color space : YUV
Chroma subsampling : 4:2:0
Bit depth : 8 bits
Scan type : Progressive
Bits/(Pixel*Frame) : 0.040
Stream size : 676 MiB (93%)
Writing library : x264 core 148
Encoding settings : cabac=1 / ref=1 / deblock=1:0:0 / analyse=0x1:0x1 / me=dia / subme=1 / psy=1 / psy_rd=1.00:0.00 / mixed_ref=0 / me_range=16 / chroma_me=1 / trellis=0 / 8x8dct=0 / cqm=0 / deadzone=21,11 / fast_pskip=1 / chroma_qp_offset=0 / threads=6 / lookahead_threads=1 / sliced_threads=0 / nr=0 / decimate=1 / interlaced=0 / bluray_compat=0 / constrained_intra=0 / bframes=3 / b_pyramid=2 / b_adapt=1 / b_bias=0 / direct=1 / weightb=1 / open_gop=0 / weightp=1 / keyint=250 / keyint_min=25 / scenecut=40 / intra_refresh=0 / rc=crf / mbtree=0 / crf=23.0 / qcomp=0.60 / qpmin=0 / qpmax=69 / qpstep=4 / ip_ratio=1.40 / pb_ratio=1.30 / aq=1:1.00
Default : Yes
Forced : No
DURATION : 0:43:0.103000000

Audio
ID : 2
Format : MPEG Audio
Format version : Version 1
Format profile : Layer 3
Format settings : Joint stereo / MS Stereo
Codec ID : A_MPEG/L3
Codec ID/Hint : MP3
Duration : 43 min 0 s
Bit rate mode : Constant
Bit rate : 128 kb/s
Channel(s) : 2 channels
Sampling rate : 44.1 kHz
Compression mode : Lossy
Delay relative to video : -559 ms
Stream size : 39.4 MiB (5%)
Writing library : Lavc57.32.100 libmp3lame
Default : Yes
Forced : No
DURATION : 0:43:0.045000000


Screenshots:


RapidGator:
https://rapidgator.net/file/41114fe81eb99ca38ec2a6f430c7dca1/5._Model_Drug_Runner.mkv.html

  Author: ^^GoRiLLaZ^^   |   30 January 2020   |   comments: 0
Crazy 2008 1080p BluRay H264 AAC-RARBG



IMDB information:

Title: Crazy (2008)
Genres: Biography, Drama, Music
Description: Inspired by the life of Hank Garland, CRAZY is the story of a legendary guitar player who emerged from Nashville in the 1950's.
  Author: ^^GoRiLLaZ^^   |   30 January 2020   |   comments: 0
Ford V Ferrari (2019) [720p] [BluRay] [YTS LT]



IMDB information:

Title: Ford v Ferrari (2019)
Genres: Action, Biography, Drama, Sport
Description: American car designer Carroll Shelby and driver Ken Miles battle corporate interference, the laws of physics and their own personal demons to build a revolutionary race car for Ford and challenge Ferrari at the 24 Hours of Le Mans in 1966.
  Author: ^^GoRiLLaZ^^   |   30 January 2020   |   comments: 0
Ike Countdown To D-Day (2004) [1080p] [WEBRip] [5.1] [YTS LT]



IMDB information:

Title: Ike: Countdown to D-Day (2004)
Genres: Drama, History, War
Description: This is the story of the senior-level preparations for the D-Day invasion on June 6, 1944 from the time of Dwight D. Eisenhower's appointment as the Supreme Allied Commander in Europe, to the establishment of the beachhead in Normandy. The film recounts many of the trials and tribulation Ike had to face, not the least of which were the many prima donnas surrounding him (Patton, Montgomery and especially de Gaulle) and the need for tact and diplomacy to bring all sides together for what would be the largest amphibious assault ever attempted.
Home        |        Register        |        Rules        |        Statistics        |        Sitemap        |        RSS        |        Contact Us
DISCLAIMER
None of the files shown here are hosted or transmitted by this server. The links are provided solely by this site's users. The administrator of this site (downturk.eu) cannot be held responsible for what its users post, or any other actions of its users. You may not use this site to distribute or download any material when you do not have the legal rights to do so. It is your own responsibility to adhere to these terms.

Copyright © 2019 DownTurk. All rights reserved.